DNS SERVER AENDERNum der staatlichen Zensur zu umgehen. Sollten wir von eurem Provider geseprrt werden, nutzt den TOR BROWSER oder ändert euren DNS SERVER.

Filmwünsche können bei uns im Forum abgegeben werden

Wir Speichern Nicht




 
 
 
Top Releases
Stronger.2017.German.720p.Bl...
Nur.Gott.kann.mich.richten.2...
Nur.Gott.kann.mich.richten.2...
Endspiel.2018.German.DL.Doku...
Endspiel.2018.German.DL.Doku...
Deadpool.2.THEATRiCAL.2018.G...
Deadpool.2.THEATRiCAL.2018.G...
Mercury.13.2018.German.DL.Do...
Mercury.13.2018.German.DL.Do...
Die.Wolken.von.Sils.Maria.20...

Cinedubs
The.Equalizer.2.TS.LD.German...
Der.Hauptmann.2017.German.AA...
Der.Hauptmann.2017.German.AA...
Ghost.Stories.2017.German.AC...
Ghost.Stories.2017.German.AC...
Oceans.8.German.DL.AC3.Dubbe...
Oceans.8.German.DL.AC3.Dubbe...
Hereditary.Das.Vermaechtnis....
Hereditary.Das.Vermaechtnis....
Oceans.8.2018.German.DL.AC3D...

Neuerscheinungen 2017-18
Kings.2017.German.720p.BluRa...
Kings.2017.German.DL.1080p.B...
Winchester.Das.Haus.der.Verd...
Bodycheck.Youngblood.1986.MU...
The.End.2017.GERMAN.DUAL.COM...
The.End.2017.GERMAN.1080p.Bl...
Vater.des.Jahres.2018.German...
The.End.2017.GERMAN.720p.Blu...
Derren.Brown.The.Push.2018.G...
Derren.Brown.The.Push.2018.G...

XXX
RealWifeStories.18.08.16.Jen...
SisLovesMe.18.08.17.April.An...
With.Milf.And.Sugar.Please.2...
SexWithMuslims.18.08.17.Mila...
PureCFNM.18.08.17.Caitlyn.Sm...
X-Sensual.18.08.07.Regin.Spa...
TabooPOV.18.08.16.Lauren.Phi...
PornMegaLoad.18.08.20.Violet...
SweetheartVideo.18.08.21.Che...
ReadyOrNotHereICum.18.08.20....
WowGirls.18.08.20.Anna.Di.Li...
Swallowed.18.08.16.Julie.Kay...
Spizoo.18.08.20.Shelby.Paris...
PropertySex.18.08.17.Lily.Ra...
StrandedTeens.18.08.16.Sicil...
SlimeWave.18.08.20.Cutie.Is....
Your.Moms.Twat.Is.Hot.9.XXX....
PureTaboo.18.08.16.Elena.Kos...
SweetheartVideo.Lesbian.Step...
Public.Sex.8.XXX.1080p.WEBRi...

3D
Avengers.Infinity.War.3D.201...
Rampage.Big.Meets.Bigger.3D....
Rampage.Big.Meets.Bigger.3D....
Rampage.Big.Meets.Bigger.3D....
Winter.Games.3D.2013.DUAL.CO...
Tomb.Raider.3D.2018.German.7...
Rampage.Big.Meets.Bigger.3D....
Rampage.Big.Meets.Bigger.3D....
Tomb.Raider.3D.2018.MULTi.CO...
Pacific.Rim.Uprising.3D.2018...
Ready.Player.One.3D.2018.Ger...
Rampage.-.Big.Meets.Bigger.2...
Ready.Player.One.2018.3D.HOU...
Ready.Player.One.2018.3D.HSB...
Ready.Player.One.3D.2018.MUL...

Old_Stuff
21.2008.German.DL.1080p.BluR...
Achtung.fertig.WK.Swissgerma...
The.Ouija.Exorcism.2015.MULT...
Meine.liebe.Rabenmutter.germ...
Da.Vincis.Demons.S01.Complet...
Eragon.Das.Vermaechtnis.der....
Adele.und.das.Geheimnis.des....
Die.fabelhafte.Welt.der.Amel...
Haus.des.Geldes.S01.German.M...
How.I.Met.Your.Mother.S01.Ge...
The.Dark.Knight.Rises.2012.M...
Weissensee.S03.2015.GERMAN.C...
Weissensee.S01+S02.2010.GERM...
Die.Unglaublichen.-.The.Incr...
Der.grosse.Trick.1978.German...

Filme
Ozark.S02.COMPLETE.German.DL...
Ozark.S01.COMPLETE.German.DD...
Ozark.S01.COMPLETE.German.DD...
Narcos.S03D01.MULTi.COMPLETE...
Tom.Clancys.Jack.Ryan.S01.Ge...
The.Last.Man.On.Earth.S04.Ge...
The.Last.Man.On.Earth.S04.Ge...
Missions.S01.GERMAN.DUBBED.7...
Narcos.S03.COMPLETE.German.D...
Gone.Baby.Gone.2007.German.D...
London.Boulevard.2010.German...
Celeste.und.Jesse.German.DL....
CBGB.2013.GERMAN.AC3D.DL.108...
Unsere.Erde.2.2017.German.DT...
Unsere.Erde.2.2017.German.DT...
Unsere.Erde.2.2017.German.DT...
Winchester.Das.Haus.der.Verd...
Cabal.-.Die.Brut.der.Nacht.C...
Car.Wash.1976.German.AC3D.DL...
Feuer.ueber.England.1937.Ger...
Sin.City.2005.DTS-HD.German....
Elliot.das.Schmunzelmonster....
Nur.fuer.Offiziere.1964.Germ...
Arrow.S06.GERMAN.DL.1080p.HD...

 
 
Ozark.S02.COMPLETE.German.DL.720p.WEB.x264.iNTERNAL-BiGiNT

Jahr: 2018
Genre: Krimi | Drama | Thriller
Sprache: Deutsch AC3 | Englisch AC3
Laufzeit: 1h je Folge
Bitrate: 1200 Kbps
Format: MKV
Größe: 1,1 GB je Folge
Release:

Beschreibung:

Marty Byrde (Jason Bateman), seine Frau Wendy (Laura Linney) und ihre Teenager-Kinder Charlotte (Sofia Hublitz) und Jonah (Skylar Gaertner) sind nach außen eine ganz normale Chicagoer Familie. Doch bei den Byrdes ist nicht alles normal, denn Finanzberater Marty arbeitet seit Jahren insgeheim als Geldwäscher für das zweitgrößte Drogenkartell Mexikos. Als der skrupellose Del (Esai Morales), einer der Drogenbosse, eines Tages allerdings Wind davon bekommt, dass Martys Kollegen ihn um mehrere Millionen Dollar betrogen haben, macht er kurzen Prozess. Um seine eigene Haut zu retten, schlägt Marty Del in seiner Verzweiflung nicht nur vor, sein Geld wiederzubeschaffen, sondern auch mit seiner Familie in die abgelegenen Ozarks in Missouri umzusiedeln, wo er die Abgeschiedenheit und die vermeintlichen Investitionsmöglichkeiten nutzen will, um dem Gangster 500 Millionen Dollar in fünf Jahren zu waschen. Ein fast unmögliches Unterfangen…



General
Complete name                            : Ozark.S02E01.German.DL.720p.WEB.x264.iNTERNAL-BiGiNT\ozark.s02e01.german.dl.720p.web.x264.internal-bigint.mkv
Format                                   : Matroska
Format version                           : Version 4 / Version 2
File size                                : 1.08 GiB
Duration                                 : 1h 0mn
Overall bit rate mode                    : Variable
Overall bit rate                         : 2 560 Kbps
Encoded date                             : UTC 2018-08-31 07:06:19
Writing application                      : mkvmerge v22.0.0 ('At The End Of The World') 64-bit
Writing library                          : libebml v1.3.5 + libmatroska v1.4.8
DURATION                                 : 00:58:47.566000000
NUMBER_OF_FRAMES                         : 833
NUMBER_OF_BYTES                          : 29656
_STATISTICS_WRITING_APP                  : mkvmerge v22.0.0 ('At The End Of The World') 64-bit
_STATISTICS_WRITING_DATE_UTC             : 2018-08-31 07:06:19
_STATISTICS_TAGS                         : BPS DURATION NUMBER_OF_FRAMES NUMBER_OF_BYTES

Video
ID                                       : 1
Format                                   : AVC
Format/Info                              : Advanced Video Codec
Format profile                           : Main@L3.1
Format settings, CABAC                   : Yes
Format settings, ReFrames                : 3 frames
Codec ID                                 : V_MPEG4/ISO/AVC
Duration                                 : 1h 0mn
Bit rate mode                            : Variable
Bit rate                                 : 1 230 Kbps
Nominal bit rate                         : 1 330 Kbps
Maximum bit rate                         : 1 995 Kbps
Width                                    : 1 280 pixels
Height                                   : 720 pixels
Display aspect ratio                     : 16:9
Frame rate mode                          : Constant
Frame rate                               : 23.976 fps
Color space                              : YUV
Chroma subsampling                       : 4:2:0
Bit depth                                : 8 bits
Scan type                                : Progressive
Bits/(Pixel*Frame)                       : 0.056
Stream size                              : 532 MiB (48%)
Writing library                          : x264 core 148 r2715 7e75228
Encoding settings                        : cabac=1 / ref=3 / deblock=1:0:0 / analyse=0x1:0x111 / me=umh / subme=10 / psy=1 / psy_rd=1.00:0.00 / mixed_ref=1 / me_range=24 / chroma_me=1 / trellis=2 / 8x8dct=0 / cqm=0 / deadzone=21,11 / fast_pskip=1 / chroma_qp_offset=-2 / threads=6 / lookahead_threads=1 / sliced_threads=0 / nr=0 / decimate=1 / interlaced=0 / bluray_compat=0 / stitchable=1 / constrained_intra=0 / bframes=2 / b_pyramid=0 / b_adapt=2 / b_bias=0 / direct=3 / weightb=1 / open_gop=0 / weightp=2 / keyint=48 / keyint_min=25 / scenecut=0 / intra_refresh=0 / rc_lookahead=48 / rc=2pass / mbtree=1 / bitrate=1330 / ratetol=1.0 / qcomp=0.50 / qpmin=6 / qpmax=51 / qpstep=4 / cplxblur=20.0 / qblur=0.5 / vbv_maxrate=1995 / vbv_bufsize=2660 / nal_hrd=vbr / filler=0 / ip_ratio=1.40 / aq=1:1.00
Default                                  : Yes
Forced                                   : No

Audio #1
ID                                       : 2
Format                                   : E-AC-3
Format/Info                              : Audio Coding 3
Format settings, Endianness              : Big
Codec ID                                 : A_EAC3
Duration                                 : 1h 0mn
Bit rate mode                            : Constant
Bit rate                                 : 640 Kbps
Channel(s)                               : 6 channels
Channel positions                        : Front: L C R, Side: L R, LFE
Sampling rate                            : 48.0 KHz
Compression mode                         : Lossy
Stream size                              : 277 MiB (25%)
Language                                 : German
Default                                  : Yes
Forced                                   : No

Audio #2
ID                                       : 3
Format                                   : E-AC-3
Format/Info                              : Audio Coding 3
Format settings, Endianness              : Big
Codec ID                                 : A_EAC3
Duration                                 : 1h 0mn
Bit rate mode                            : Constant
Bit rate                                 : 640 Kbps
Channel(s)                               : 6 channels
Channel positions                        : Front: L C R, Side: L R, LFE
Sampling rate                            : 48.0 KHz
Compression mode                         : Lossy
Stream size                              : 277 MiB (25%)
Language                                 : English
Default                                  : No
Forced                                   : No

Text #1
ID                                       : 4
Format                                   : UTF-8
Codec ID                                 : S_TEXT/UTF8
Codec ID/Info                            : UTF-8 Plain Text
Title                                    : Forced
Language                                 : German
Default                                  : Yes
Forced                                   : Yes

Text #2
ID                                       : 5
Format                                   : UTF-8
Codec ID                                 : S_TEXT/UTF8
Codec ID/Info                            : UTF-8 Plain Text
Title                                    : Deutsch
Language                                 : German
Default                                  : No
Forced                                   : No

Text #3
ID                                       : 6
Format                                   : UTF-8
Codec ID                                 : S_TEXT/UTF8
Codec ID/Info                            : UTF-8 Plain Text
Title                                    : Englisch (CC)
Language                                 : English
Default                                  : No
Forced                                   : No



Download:
Share-Online.biz Share-Online.bizShare-Online.bizShare-Online.biz | Rapidgator.net Rapidgator.netRapidgator.netRapidgator.net
 

Kommentare