Filecrypt zeigt vereinzelt Files als "n/a". Die Downloads sind trotzdem komplett.

DNS SERVER AENDERNum der staatlichen Zensur zu umgehen. Sollten wir von eurem Provider geseprrt werden, nutzt den TOR BROWSER oder ändert euren DNS SERVER.

Filmwünsche können bei uns im Forum abgegeben werden

Wir Speichern Nicht




 
 
 
Top Releases
The.Equalizer.2.German.DL.AC...
The.Equalizer.2.German.DL.AC...
In.den.Gaengen.German.1080p....
Gun.City.2018.German.720p.WE...
Gun.City.2018.German.1080p.W...
In.den.Gaengen.German.720p.B...
Paterson.2016.German.AC3.108...
Lion.Der.lange.Weg.nach.Haus...
Luis.und.die.Aliens.German.D...
Der.Butler.2013.German.AC3.D...

Cinedubs
Der.Affront.2017.GERMAN.AC3....
Der.Affront.2017.GERMAN.AC3....
Meg.German.DL.AC3.Dubbed.108...
Meg.German.DL.AC3.Dubbed.720...
The.Equalizer.2.German.DL.AC...
The.Equalizer.2.German.DL.AC...
The.Nun.German.DL.AC3.Dubbed...
The.Nun.German.DL.AC3.Dubbed...
Christopher.Robin.2018.GERMA...
Christopher.Robin.2018.GERMA...

Neuerscheinungen 2017-18
The Fog 1980.MULTi.COMPLETE....
The.Matrix.Revolutions.2003....
The.Darkest.Minds.2018.COMPL...
The.Fog.Nebel.des.Grauens.19...
The.Fog.Nebel.des.Grauens.19...
Braveheart.1995.MULTi.COMPLE...
Revenge.of.the.Warrior.Tom.Y...
2001.Odyssee.im.Weltraum.200...
Primal.Rage.2018.MULTi.COMPL...
Primal.Rage.2018.German.DL.1...

XXX
Lesbea.18.10.14.Sasha.Sparro...
LittleCapriceDreams.18.10.08...
MatureNL.18.04.27.Molly.Mara...
LANewGirl.18.09.16.Layla.Sho...
LoneMilf.18.10.15.Olivia.Blu...
LivingWithAPornstar.18.10.15...
Lustery.E141.Maria.And.Zee.R...
LarasPlayground.18.10.12.Cha...
MatureNL.18.04.13.Darcia.Lee...
LANewGirl.18.09.25.Ana.Model...
LANewGirl.18.09.11.Layla.Mod...
MatureNL.18.04.26.Artemia.An...
MassageRooms.18.10.17.Lady.B...
MatureNL.18.04.11.Krista.E.A...
LANewGirl.18.09.29.Ana.Sex.T...
LezBoxx.18.10.12.Violet.Pink...
LANewGirl.18.09.18.Skylar.Mo...
MassageRooms.18.10.13.Anya.K...
Lightbox.Vol.1.XXX.1080p.WEB...
MatureNL.18.04.12.Sissy.Neri...

3D
Deep.Kleine.Helden.der.Tiefs...
Deep.3D.2017.MULTI.COMPLETE....
Detective.Dee.und.die.Legend...
Detective.Dee.und.die.Legend...
Skyscraper.3D.German.DL.AC3....
Ant-Man.and.the.Wasp.2018.3D...
Jurassic.World.Das.gefallene...
Jurassic.World.Das.gefallene...
Best.of.3D.vol.10.-.12.GERMA...
Die.Biene.Maja.2.Die.Honigsp...
Sharknado.6.The.Last.One.3D....
Solo.A.Star.Wars.Story.3D.20...
Solo.A.Star.Wars.Story.3D.20...
Die.Biene.Maja.2.Die.Honigsp...
Avengers.Infinity.War.3D.201...

Old_Stuff
Species.IV.Das.Erwachen.2007...
Species.IV.Das.Erwachen.2007...
Hotel.Transsilvanien.2012.Ge...
The.Dead.2010.German.DL.1080...
The.Dead.2.India.2013.German...
Britney.Spears.Live.The.Femm...
Buffy.The.Vampire.Slayer.199...
IMAX.Ride.Around.The.World.2...
Schimanski.-.Duisburg.Ruhror...
Akte.X.S02.German.DTS.DL.108...
How.I.Met.Your.Mother.S02.Ge...
Akte.X.S01.German.DTS.DL.108...
Den.Himmel.gibts.echt.DL.108...
Vikings.S02.German.DL.1080p....
Be.Kind.Rewind.Abgedreht.200...

Filme
Maennertag.2016.German.AC3.1...
Jin.Roh.Die.Wolfsbrigade.199...
Die.7.Macht.The.Legend.of.Wi...
Ray.Donovan.S06.GERMAN.DUBBE...
Ray.Donovan.S06.GERMAN.DUBBE...
2001.Odyssee.im.Weltraum.196...
The.Pacific.2010.DISC1.Germa...
The.Pacific.2010.DISC2.Germa...
The.Pacific.2010.DISC3.Germa...
The.Pacific.2010.DISC4.Germa...
The.Pacific.2010.DISC5.Germa...
Er.steht.einfach.nicht.auf.D...
Open.Graves.2009.German.DTS....
Nobel.Son.2007.German.DTS.DL...
Mystikal.Eldyn.der.Zauberleh...
Equity.An.der.Wall.Street.si...
Episode.50.2011.German.DL.10...
No.Way.Back.1995.German.1080...
Hexe.Lilli.Der.Drache.und.da...
Drei.Maenner.und.eine.kleine...
Eragon.2006.German.DTS.DL.10...
The.Fog.Nebel.des.Grauens.19...
Apollo.13.1995.German.DTSD.1...
Banditen.aka.Bandits.2001.Ge...

 
 
Ray.Donovan.S06.GERMAN.DUBBED.DL.720p.WebHD.x264-TVP

Jahr: 2018
Genre: Krimi | Drama
Sprache: Deutsch AC3 | Englisch AC3
Laufzeit: 55min je Folge
Bitrate: 1600 Kbps
Format: MKV
Größe: 900 MB je Folge
Release:

Beschreibung:

Ray Donovan arbeitet in Los Angeles für die mächtige Anwaltskanzlei Goldman & Drexler. Als ‚Fixer‘ löst er die Probleme der Reichen und Berühmten. Zum Team zählen seine rechte Hand Avi und PR-Profi Lena. Weniger souverän als in seinem Job gibt sich Ray allerdings im Familienleben. Seine unzufriedene Ehefrau Abby und die beiden Kinder sieht er selten. Alte Wunden werden aufgerissen, als der ungeliebte Vater Mickey unerwartet frühzeitig aus dem Gefängnis entlassen wird und damit beginnt, seine Familie zu vereinnahmen.

 

enthaltene Folgen:

Ray.Donovan.S06E01.Staten.Island.GERMAN.DUBBED.DL.720p.WebHD.x264-TVP NEU



General
Complete name                            : Ray.Donovan.S06E01.Staten.Island.GERMAN.DUBBED.DL.720p.WebHD.x264-TVP\tvp-raydonovan-s06e01-720p.mkv
Format                                   : Matroska
Format version                           : Version 2
File size                                : 931 MiB
Duration                                 : 56mn 40s
Overall bit rate                         : 2 295 Kbps
Movie name                               : Ray.Donovan.S06E01.Staten.Island.GERMAN.DUBBED.DL.720p.WebHD.x264-TVP
Encoded date                             : UTC 2018-11-01 10:38:35
Writing application                      : mkvmerge v5.6.0 ('Kenya Kane') built on May 28 2012 06:47:39
Writing library                          : libebml v1.2.2 + libmatroska v1.3.0

Video
ID                                       : 1
Format                                   : AVC
Format/Info                              : Advanced Video Codec
Format profile                           : High@L3.1
Format settings, CABAC                   : Yes
Format settings, ReFrames                : 5 frames
Codec ID                                 : V_MPEG4/ISO/AVC
Duration                                 : 56mn 40s
Bit rate                                 : 1 674 Kbps
Width                                    : 1 280 pixels
Height                                   : 720 pixels
Display aspect ratio                     : 16:9
Frame rate mode                          : Constant
Frame rate                               : 25.000 fps
Original frame rate                      : 23.976 fps
Color space                              : YUV
Chroma subsampling                       : 4:2:0
Bit depth                                : 8 bits
Scan type                                : Progressive
Bits/(Pixel*Frame)                       : 0.073
Stream size                              : 679 MiB (73%)
Title                                    : tvp-raydonovan-s06e01-720p
Language                                 : German
Default                                  : Yes
Forced                                   : Yes
Color primaries                          : BT.709
Transfer characteristics                 : BT.709
Matrix coefficients                      : BT.709

Audio #1
ID                                       : 2
Format                                   : AC-3
Format/Info                              : Audio Coding 3
Mode extension                           : CM (complete main)
Format settings, Endianness              : Big
Codec ID                                 : A_AC3
Duration                                 : 56mn 40s
Bit rate mode                            : Constant
Bit rate                                 : 192 Kbps
Channel(s)                               : 2 channels
Channel positions                        : Front: L R
Sampling rate                            : 48.0 KHz
Bit depth                                : 16 bits
Compression mode                         : Lossy
Stream size                              : 77.8 MiB (8%)
Language                                 : German
Default                                  : Yes
Forced                                   : Yes

Audio #2
ID                                       : 3
Format                                   : AC-3
Format/Info                              : Audio Coding 3
Mode extension                           : CM (complete main)
Format settings, Endianness              : Big
Codec ID                                 : A_AC3
Duration                                 : 56mn 40s
Bit rate mode                            : Constant
Bit rate                                 : 384 Kbps
Channel(s)                               : 6 channels
Channel positions                        : Front: L C R, Side: L R, LFE
Sampling rate                            : 48.0 KHz
Bit depth                                : 16 bits
Compression mode                         : Lossy
Stream size                              : 156 MiB (17%)
Language                                 : English
Default                                  : No
Forced                                   : No



Download:
Share-Online.biz Share-Online.bizShare-Online.bizShare-Online.biz | Rapidgator.net Rapidgator.netRapidgator.netRapidgator.net
 

Kommentare