Filecrypt zeigt vereinzelt Files als "n/a". Die Downloads sind trotzdem komplett.

DNS SERVER AENDERNum der staatlichen Zensur zu umgehen. Sollten wir von eurem Provider geseprrt werden, nutzt den TOR BROWSER oder ändert euren DNS SERVER.

Filmwünsche können bei uns im Forum abgegeben werden

Wir Speichern Nicht




 
 
 
Top Releases
Mission.Impossible.Fallout.2...
Mission.Impossible.Fallout.2...
Mission.Impossible.Fallout.2...
Feinde.Hostiles.2017.DUAL.CO...
The.Miracle.Season.Ihr.groes...
The.Miracle.Season.Ihr.groes...
The.Miracle.Season.Ihr.groes...
Le.Jeu.Nichts.zu.verbergen.2...
Le.Jeu.Nichts.zu.verbergen.2...
Cam.2018.German.DL.1080p.WEB...

Cinedubs
The.Happytime.Murders.Kein.S...
The.Happytime.Murders.Kein.S...
Peppermint.Angel.of.Vengeanc...
Peppermint.Angel.of.Vengeanc...
The.Nun.German.AC3D.DL.1080p...
Christopher.Robin.German.DL....
Christopher.Robin.German.DL....
A.Star.Is.Born.German.DL.AC3...
A.Star.Is.Born.German.DL.AC3...
Mission.Impossible.Fallout.G...

Neuerscheinungen 2017-18
Cliffhanger.Nur.die.Starken....
Cliffhanger.Nur.die.Starken....
Devils.Gate.Pforte.zur.Hoell...
Devils.Gate.Pforte.zur.Hoell...
Beautiful.People.2014.German...
Immortal.Wars.Nur.der.Staerk...
Beautiful.People.2014.DUAL.C...
Devils.Gate.Pforte.zur.Hoell...
Night.Of.The.Demons.1988.DUA...
Africa.Addio.1966.DUAL.COMPL...

XXX
Nerd.Pervert.Vol.30.XXX.720p...
Nerd.Pervert.Vol.30.XXX.1080...
Private.18.10.31.Miss.Meliss...
NHLPCentral.18.05.24.Kate.An...
PornMegaLoad.18.10.28.Korina...
PublicDisgrace.18.10.29.Mz.B...
PornstarPlatinum.18.10.30.Jo...
PlayboyPlus.18.10.31.Alice.A...
PlumperPass.18.10.31.Naia.Be...
NHLPCentral.18.06.11.Karina....
Private.18.10.29.Latina.Andr...
PornFidelity.E766.Sophia.Lux...
PublicBang.18.10.28.Ginebra....
PornMegaLoad.18.10.29.Savana...
NHLPCentral.18.06.07.Beth.Be...
PureTaboo.18.10.30.Kendra.Sp...
PublicAgent.18.10.30.Akasha....
PornstarsLikeItBig.18.10.31....
PlumperPass.18.10.29.Veruca....
PornstarPlatinum.18.10.31.Al...

3D
Die.Unglaublichen.2.2018.3D....
Skyscraper.3D.2018.MULTi.COM...
Ant-Man.And.The.Wasp.3D.2018...
Ant.Man.and.the.Wasp.3D.2018...
Die.Unglaublichen.2.3D.2018....
Die.Unglaublichen.2.2018.3D....
Die.Unglaublichen.2.2018.3D....
Sharknado.6.The.Last.One.3D....
Deep.Kleine.Helden.der.Tiefs...
Deep.3D.2017.MULTI.COMPLETE....
Detective.Dee.und.die.Legend...
Detective.Dee.und.die.Legend...
Skyscraper.3D.German.DL.AC3....
Ant-Man.and.the.Wasp.2018.3D...
Jurassic.World.Das.gefallene...

Old_Stuff
Dunkirk.1958.COMPLETE.BLURAY...
Das.Wunder.von.Manhattan.199...
The.Amazing.Spiderman.2.Rise...
Rise.of.the.Predator.2014.Ge...
Detective.Dee.und.das.Geheim...
Detective.Dee.Und.Der.Fluch....
Ghost.Rider.Spirit.of.Vengea...
Species.IV.Das.Erwachen.2007...
Species.IV.Das.Erwachen.2007...
Hotel.Transsilvanien.2012.Ge...
The.Dead.2010.German.DL.1080...
The.Dead.2.India.2013.German...
Britney.Spears.Live.The.Femm...
Buffy.The.Vampire.Slayer.199...
IMAX.Ride.Around.The.World.2...

Filme
Dunkirk.1958.German.DTS-HD.D...
Skin.Creepers.2018.German.10...
Outlander.S04.German.DD51.DL...
Outlander.S04.German.DD51.DL...
Die.Simpsons.S29.GERMAN.DUBB...
Wrecked.-.Voll.abgestuerzt.S...
The.Bite.UNCUT.1989.German.A...
Wrecked.S03.GERMAN.DUBBED.72...
NCIS.S15.GERMAN.DUBBED.DL.72...
NCIS.Los.Angeles.S09.COMPLET...
Cemetery.Junction.2010.Germa...
Frankenstein.Das.Experiment....
Fremde.Wesen.1997.German.DL....
Walt.Disneys.Superhirn.in.Te...
Ghostbusters.1984.DTS-HD.DL....
Die.Verachtung.1963.BluRay.1...
Drei.Schlappschwaenze.auf.gr...
Vertigo.Aus.dem.Reich.der.To...
Arrow.S06.GERMAN.DL.1080p.HD...
Arrow.S06.GERMAN.DL.720p.HDT...
Black.Lightning.S02.GERMAN.D...
Black.Lightning.S02.GERMAN.D...
Selfless.2015.German.DL.1080...
Full.Speed.2016.German.1080p...

 
 
Wrecked.-.Voll.abgestuerzt.S03.GERMAN.5.1.DL.AC3.1080p.HDTV.h264-TvR

Jahr: 2018
Genre: Abenteuer | Komödie | Thriller
Sprache: Deutsch AC3 | Englisch AC3
Laufzeit: 21min je Folge
Bitrate: 6700 Kbps
Format: MKV
Größe: 1 GB je Folge
Release:

Beschreibung:

In der Comedyserie „Wrecked“ stehen die Ereignisse nach einem Flugzeugabsturz auf einer abgeschiedenen Insel im Mittelpunkt. Dabei geht es um zwei beste Freunde sowie eine bunt zusammengewürfelte Gruppe von Überlebenden, die nun versuchen müssen in dieser neuen Umgebung mit den einzigartigen Bedrohungen zurechtzukommen – die meisten davon verursachen sie selbst. Danny und Owen, die vor dem Crash eher als Loser galten, erhalten nun die Chance sich als die Männer zu inszenieren, die sie gerne wären. Plötzlich übernehmen sie die Anführerrolle in einer Gesellschaft, die auf Social Media, W-Lan, fließendes Wasser und Fast-Food-Restaurants verzichten muss.

 

enthaltene Folgen:

Wrecked.-.Voll.abgestuerzt.S03E01.Buschmann.GERMAN.5.1.DL.AC3.1080p.HDTV.h264-TvR

Wrecked.-.Voll.abgestuerzt.S03E02.Kotze.und.Zigarren.GERMAN.5.1.DL.AC3.1080p.HDTV.h264-TvR

Wrecked.-.Voll.abgestuerzt.S03E03.Die.Namen.der.Beute.GERMAN.5.1.DL.AC3.1080p.HDTV.h264-TvR

Wrecked.-.Voll.abgestuerzt.S03E04.Die.brustlose.Koenigin.GERMAN.5.1.DL.AC3.1080p.HDTV.h264-TvR



General
Complete name                            : Wrecked.-.Voll.abgestuerzt.S03E01.Buschmann.GERMAN.5.1.DL.AC3.1080p.HDTV.h264-TvR\tvr-w-va-s03e01-1080p.mkv
Format                                   : Matroska
Format version                           : Version 4 / Version 2
File size                                : 1.12 GiB
Duration                                 : 20mn 54s
Overall bit rate                         : 7 657 Kbps
Movie name                               : Wrecked - Voll abgestürzt! - S03E01 - Buschmann
Encoded date                             : UTC 2018-11-14 20:07:52
Writing application                      : mkvmerge v27.0.0 ('Metropolis') 64-bit
Writing library                          : libebml v1.3.6 + libmatroska v1.4.9
Attachment                               : Yes

Video
ID                                       : 1
Format                                   : AVC
Format/Info                              : Advanced Video Codec
Format profile                           : High@L4.0
Format settings, CABAC                   : Yes
Format settings, ReFrames                : 4 frames
Codec ID                                 : V_MPEG4/ISO/AVC
Duration                                 : 20mn 54s
Bit rate                                 : 6 737 Kbps
Width                                    : 1 920 pixels
Height                                   : 1 080 pixels
Display aspect ratio                     : 16:9
Frame rate mode                          : Constant
Frame rate                               : 25.000 fps
Standard                                 : Component
Color space                              : YUV
Chroma subsampling                       : 4:2:0
Bit depth                                : 8 bits
Scan type                                : MBAFF
Bits/(Pixel*Frame)                       : 0.130
Stream size                              : 1 008 MiB (88%)
Title                                    : Wrecked - Voll abgestürzt! - S03E01 - Buschmann
Language                                 : English
Default                                  : Yes
Forced                                   : No
Color primaries                          : BT.709
Transfer characteristics                 : BT.709
Matrix coefficients                      : BT.709

Audio #1
ID                                       : 2
Format                                   : AC-3
Format/Info                              : Audio Coding 3
Mode extension                           : CM (complete main)
Format settings, Endianness              : Big
Codec ID                                 : A_AC3
Duration                                 : 20mn 54s
Bit rate mode                            : Constant
Bit rate                                 : 384 Kbps
Channel(s)                               : 6 channels
Channel positions                        : Front: L C R, Side: L R, LFE
Sampling rate                            : 48.0 KHz
Bit depth                                : 16 bits
Compression mode                         : Lossy
Delay relative to video                  : -80ms
Stream size                              : 57.4 MiB (5%)
Title                                    : AC3 5.1 @ 384 kbps
Language                                 : German
Default                                  : Yes
Forced                                   : No

Audio #2
ID                                       : 3
Format                                   : MPEG Audio
Format version                           : Version 1
Format profile                           : Layer 2
Codec ID                                 : A_MPEG/L2
Codec ID/Hint                            : MP2
Duration                                 : 20mn 54s
Bit rate mode                            : Constant
Bit rate                                 : 192 Kbps
Channel(s)                               : 2 channels
Sampling rate                            : 48.0 KHz
Compression mode                         : Lossy
Delay relative to video                  : -80ms
Stream size                              : 28.7 MiB (3%)
Title                                    : AC3 2.0 @ 192 kbps
Language                                 : English
Default                                  : No
Forced                                   : No

Audio #3
ID                                       : 4
Format                                   : MPEG Audio
Format version                           : Version 1
Format profile                           : Layer 2
Codec ID                                 : A_MPEG/L2
Codec ID/Hint                            : MP2
Duration                                 : 20mn 54s
Bit rate mode                            : Constant
Bit rate                                 : 192 Kbps
Channel(s)                               : 2 channels
Sampling rate                            : 48.0 KHz
Compression mode                         : Lossy
Delay relative to video                  : -80ms
Stream size                              : 28.7 MiB (3%)
Title                                    : AC3 2.0 @ 192 kbps
Language                                 : English
Default                                  : No
Forced                                   : No



Download:
Share-Online.biz Share-Online.bizShare-Online.bizShare-Online.biz | Rapidgator.net Rapidgator.netRapidgator.netRapidgator.net
 

Kommentare