Filecrypt zeigt vereinzelt Files als "n/a". Die Downloads sind trotzdem komplett.

DNS SERVER AENDERNum der staatlichen Zensur zu umgehen. Sollten wir von eurem Provider geseprrt werden, nutzt den TOR BROWSER oder ändert euren DNS SERVER.

Filmwünsche können bei uns im Forum abgegeben werden

Wir Speichern Nicht




 
 
 
Top Releases
Burnt.Im.Rausch.der.Sterne.2...
Sicario.2.Soldado.2018.Germa...
Hotel.Artemis.German.DL.720p...
Hotel.Artemis.German.DL.1080...
Dead.in.a.Week.Oder.Geld.zur...
Dead.in.a.Week.Oder.Geld.zur...
Die.Welt.gehoert.dir.2018.Ge...
Die.Welt.gehoert.dir.2018.Ge...
Paradox.Kill.Zone.Bangkok.20...
Paradox.Kill.Zone.Bangkok.20...

Cinedubs
I.Still.See.You.Sie.lassen.d...
I.Still.See.You.Sie.lassen.d...
Braven.2018.German.AC3D.DL.1...
Braven.2018.German.AC3D.DL.7...
Smallfoot.Ein.eisigartiges.A...
Smallfoot.Ein.eisigartiges.A...
Halloween.German.DL.AC3.Dubb...
Halloween.German.DL.AC3.Dubb...
Freaky.Friday.German.DL.AC3....
Freaky.Friday.German.DL.AC3....

Neuerscheinungen 2017-18
The.Darkest.Minds.Die.Ueberl...
Battle.2018.German.720p.WEB....
Battle.2018.German.1080p.WEB...
Angelas.Weihnachten.2018.Ger...
Angelas.Weihnachten.2018.Ger...
The.Mermaid.Lake.of.the.Dead...
The.Mermaid.Lake.of.the.Dead...
Ouija.Seance.The.Final.Game....
Ouija.Seance.The.Final.Game....
Reprisal.Nimm.Dir.was.Dir.ge...

XXX
CuckoldSessions.18.11.25.Kat...
DesperateAmateurs.18.11.25.K...
EvilAngel.Top.Heavy.Sluts.XX...
ATKHairy.18.11.23.Lexa.XXX.1...
FootsieBabes.18.11.25.Lilu.M...
GirlsOutWest.18.11.25.Amber....
CzechEscortGirls.18.11.26.Ti...
DorcelClub.18.11.26.Alyssia....
DDFBusty.18.11.25.Victoria.J...
ATKGirlfriends.18.11.25.Lucy...
ATKHairy.18.11.26.Nenetl.Avr...
Cucked.18.11.26.Skylar.Snow....
AdultAuditions.E264.Paige.My...
FakeDrivingSchool.18.11.26.G...
EuroTeenErotica.18.11.26.Mia...
Cosmid.18.11.26.Allie.Reed.F...
GirlsTryAnal.18.11.25.Penny....
CzechEscortGirls.18.11.26.Ka...
FirstAnalQuest.18.11.25.Eva....
FitnessRooms.18.11.26.Boni.J...

3D
The.Art.of.Flight.3D.2011.Ge...
The.End.Of.The.World.3D.2010...
The.First.Avenger.Civil.War....
Die.Unglaublichen.2.2018.3D....
Skyscraper.3D.2018.MULTi.COM...
Ant-Man.And.The.Wasp.3D.2018...
Ant.Man.and.the.Wasp.3D.2018...
Die.Unglaublichen.2.3D.2018....
Die.Unglaublichen.2.2018.3D....
Die.Unglaublichen.2.2018.3D....
Sharknado.6.The.Last.One.3D....
Deep.Kleine.Helden.der.Tiefs...
Deep.3D.2017.MULTI.COMPLETE....
Detective.Dee.und.die.Legend...
Detective.Dee.und.die.Legend...

Old_Stuff
Akte.X.S03.German.DTS.DL.108...
Dunkirk.1958.COMPLETE.BLURAY...
Das.Wunder.von.Manhattan.199...
The.Amazing.Spiderman.2.Rise...
Rise.of.the.Predator.2014.Ge...
Detective.Dee.und.das.Geheim...
Detective.Dee.Und.Der.Fluch....
Ghost.Rider.Spirit.of.Vengea...
Species.IV.Das.Erwachen.2007...
Species.IV.Das.Erwachen.2007...
Hotel.Transsilvanien.2012.Ge...
The.Dead.2010.German.DL.1080...
The.Dead.2.India.2013.German...
Britney.Spears.Live.The.Femm...
Buffy.The.Vampire.Slayer.199...

Filme
Fear.the.Walking.Dead.S04D01...
The.Originals.S05.GERMAN.5.1...
The.Originals.S05.GERMAN.720...
Preacher.S03D01-3.COMPLETE.B...
Modern.Family.S09.GERMAN.DUB...
Ray.Donovan.S06.GERMAN.DUBBE...
Ray.Donovan.S06.GERMAN.DUBBE...
Outlander.S04.German.DD51.DL...
Outlander.S04.German.DD51.DL...
Teen.Wolf.S06D01-5.MULTi.COM...
There.Will.Be.Blood.2007.Ger...
Overboard.-.Ein.Goldfisch.fa...
Schneefloeckchen.2017.German...
Scorpion.King.Das.Buch.der.S...
Radio.Days.1987.German.DL.10...
Radio.Rebel.Unueberhoerbar.2...
Radio.Silence.Der.Tod.hoert....
Rage.2.2010.German.DL.1080p....
Rage.2009.German.DL.1080p.Bl...
Hotel.Artemis.2018.German.DT...
Stanley.und.Iris.1990.German...
The.Walking.Dead.S08D1-4.UNC...
Once.Upon.a.Time.S07.German....
Once.Upon.a.Time.S07.German....

 
 
The.Originals.S05.GERMAN.5.1.DUBBED.DL.AC3.1080p.WEB-DL.h264-TvR

Jahr: 2018
Genre: Drama | Fantasy | Horror
Sprache: Deutsch AC3 | Englisch AC3
Laufzeit: 40min je Folge
Bitrate: 10 Mbps
Format: MKV
Größe: 3,5 GB je Folge
Release:

Beschreibung:

In „The Originals“ ist ein Spin-off der Serie „The Vampire Diaries“ in der die drei mächtigen Mikaleson-Geschwister Klaus (Joseph Morgan), Elijah (Daniel Gillies) und Rebekah (Claire Holt) im Mittelpunkt stehen. Die Mikaelsons waren die ersten Vampire und heißen deshalb Originals. Nachdem sie ihr Unwesen in Mystic Falls getrieben haben, wird die Handlung nach New Orleans verlagert, eine Stadt, die Klaus seinerzeit offenbar mitgegründet hat. Dort trifft der Hybrid auf jemanden aus seiner Vergangenheit: seinem ehemaligen Protegé Marcel Charles Michael Davis, der das ungekrönte Oberhaupt der übernatürlichen Kreaturen von New Orleans ist.

 

enthaltene Folgen:

The.Originals.S05E01.Wo.dein.Herz.zuhause.ist.GERMAN.5.1.DUBBED.DL.AC3.1080p.WEB-DL.h264-TvR

The.Originals.S05E02.Erdulde.deine.Strafe.GERMAN.5.1.DUBBED.DL.AC3.1080p.WEB-DL.h264-TvR

The.Originals.S05E03.Verlass.mich.nicht.GERMAN.5.1.DUBBED.DL.AC3.1080p.WEB-DL.h264-TvR

The.Originals.S05E04.Pest.oder.Cholera.GERMAN.5.1.DUBBED.DL.AC3.1080p.WEB-DL.h264-TvR

The.Originals.S05E05.Scham.GERMAN.5.1.DUBBED.DL.AC3.1080p.WEB-DL.h264-TvR

The.Originals.S05E06.Was.wird.mir.bleiben.GERMAN.5.1.DUBBED.DL.AC3.1080p.WEB-DL.h264-TvR

The.Originals.S05E07.Und.Gott.wird.das.Wasser.trueben.GERMAN.5.1.DUBBED.DL.AC3.1080p.WEB-DL.h264-TvR

The.Originals.S05E08.Das.Schluessel-Raetsel.GERMAN.5.1.DUBBED.DL.AC3.1080p.WEB-DL.h264-TvR

The.Originals.S05E09.Welche.Seite.waehlst.du.GERMAN.5.1.DUBBED.DL.AC3.1080p.WEB-DL.h264-TvR

The.Originals.S05E10.Im.verschwindenden.Licht.GERMAN.5.1.DUBBED.DL.AC3.1080p.WEB-DL.h264-TvR

The.Originals.S05E11.Bis.dass.der.Tod.uns.scheidet.GERMAN.5.1.DUBBED.DL.AC3.1080p.WEB-DL.h264-TvR NEU



General
Complete name                            : The.Originals.S05E01.Wo.dein.Herz.zuhause.ist.GERMAN.5.1.DUBBED.DL.AC3.1080p.WEB-DL.h264-TvR\tvr-the-originals-s05e01-1080p.mkv
Format                                   : Matroska
Format version                           : Version 4 / Version 2
File size                                : 3.45 GiB
Duration                                 : 40mn 24s
Overall bit rate mode                    : Variable
Overall bit rate                         : 12.2 Mbps
Movie name                               : The Originals - S05E01 - Wo dein Herz zuhause ist
Encoded date                             : UTC 2018-10-07 10:22:04
Writing application                      : mkvmerge v24.0.0 ('Beyond The Pale') 64-bit
Writing library                          : libebml v1.3.6 + libmatroska v1.4.9
Attachment                               : Yes

Video
ID                                       : 1
Format                                   : AVC
Format/Info                              : Advanced Video Codec
Format profile                           : High@L4.0
Format settings, CABAC                   : Yes
Format settings, ReFrames                : 4 frames
Codec ID                                 : V_MPEG4/ISO/AVC
Duration                                 : 40mn 24s
Bit rate mode                            : Variable
Bit rate                                 : 10.9 Mbps
Maximum bit rate                         : 15.0 Mbps
Width                                    : 1 920 pixels
Height                                   : 1 080 pixels
Display aspect ratio                     : 16:9
Frame rate mode                          : Constant
Frame rate                               : 25.000 fps
Color space                              : YUV
Chroma subsampling                       : 4:2:0
Bit depth                                : 8 bits
Scan type                                : Progressive
Bits/(Pixel*Frame)                       : 0.210
Stream size                              : 3.07 GiB (89%)
Title                                    : The Originals - S05E01 - Wo dein Herz zuhause ist
Language                                 : English
Default                                  : Yes
Forced                                   : No
Color primaries                          : BT.709
Transfer characteristics                 : BT.709
Matrix coefficients                      : BT.709

Audio #1
ID                                       : 2
Format                                   : AC-3
Format/Info                              : Audio Coding 3
Mode extension                           : CM (complete main)
Format settings, Endianness              : Big
Codec ID                                 : A_AC3
Duration                                 : 40mn 24s
Bit rate mode                            : Constant
Bit rate                                 : 448 Kbps
Channel(s)                               : 6 channels
Channel positions                        : Front: L C R, Side: L R, LFE
Sampling rate                            : 48.0 KHz
Bit depth                                : 16 bits
Compression mode                         : Lossy
Stream size                              : 129 MiB (4%)
Title                                    : AC3 5.1 @ 448 kbps
Language                                 : German
Default                                  : Yes
Forced                                   : No

Audio #2
ID                                       : 3
Format                                   : AC-3
Format/Info                              : Audio Coding 3
Mode extension                           : CM (complete main)
Format settings, Endianness              : Big
Codec ID                                 : A_AC3
Duration                                 : 40mn 24s
Bit rate mode                            : Constant
Bit rate                                 : 640 Kbps
Channel(s)                               : 6 channels
Channel positions                        : Front: L C R, Side: L R, LFE
Sampling rate                            : 48.0 KHz
Bit depth                                : 16 bits
Compression mode                         : Lossy
Stream size                              : 185 MiB (5%)
Title                                    : AC3 5.1 @ 640 kbps
Language                                 : English
Default                                  : No
Forced                                   : No

Text
ID                                       : 4
Format                                   : UTF-8
Codec ID                                 : S_TEXT/UTF8
Codec ID/Info                            : UTF-8 Plain Text
Title                                    : Full SRT
Language                                 : English
Default                                  : No
Forced                                   : No



Download:
Share-Online.biz Share-Online.bizShare-Online.bizShare-Online.biz | Rapidgator.net Rapidgator.netRapidgator.netRapidgator.net
 

Kommentare