Filecrypt zeigt vereinzelt Files als "n/a". Die Downloads sind trotzdem komplett.

DNS SERVER AENDERNum der staatlichen Zensur zu umgehen. Sollten wir von eurem Provider geseprrt werden, nutzt den TOR BROWSER oder ändert euren DNS SERVER.

Filmwünsche können bei uns im Forum abgegeben werden

Wir Speichern Nicht




 
 
 
Top Releases
Predator.Upgrade.German.DL.A...
Predator.Upgrade.German.DL.A...
Better.Watch.Out.2016.German...
Destination.Wedding.2018.Ger...
Destination.Wedding.2018.Ger...
Schneefloeckchen.GERMAN.2017...
Schneefloeckchen.GERMAN.2017...
Christopher.Robin.2018.Germa...
Christopher.Robin.2018.Germa...
Pin.Cushion.2017.German.720p...

Cinedubs
Halloween.German.DL.AC3.Dubb...
Halloween.German.DL.AC3.Dubb...
Freaky.Friday.German.DL.AC3....
Freaky.Friday.German.DL.AC3....
Jupiters.Moon.2017.GERMAN.AC...
Jupiters.Moon.2017.GERMAN.AC...
Venom.German.DL.AC3.Dubbed.1...
Venom.German.DL.AC3.Dubbed.7...
Das.Haus.der.geheimnisvollen...
Das.Haus.der.geheimnisvollen...

Neuerscheinungen 2017-18
Jeepers.Creepers.II.2003.DUA...
Liliane.Susewind.Ein.tierisc...
Boarding.School.2018.German....
Liliane.Susewind.Ein.tierisc...
Liliane.Susewind.Ein.tierisc...
Unhinged.2017.COMPLETE.BLURA...
Unhinged.Verstoert.und.Ausge...
Unhinged.Verstoert.und.Ausge...
School.Daze.1988.COMPLETE.BL...
Megalodon.2018.COMPLETE.BLUR...

XXX
Bang.That.Ass.XXX.720p.WEBRi...
Bang.That.Ass.XXX.1080p.WEBR...
SugarCookie.18.05.29.Jimena....
SweetheartVideo.Wifey.XXX.72...
ATKHairy.18.11.19.Kahlista.S...
Sweet18.18.11.19.Liv.Revampe...
SweetheartVideo.18.11.19.Mer...
Twistys.18.11.19.Eliza.Ibarr...
SugarCookie.18.05.27.Stefani...
Bang.RealTeens.18.11.19.Harm...
TrueAnal.18.11.19.Gia.Paige....
TakeVan.18.11.19.Sophie.A.Gi...
SugarCookie.18.05.14.Jimena....
SugarCookie.18.05.02.Frida.S...
SugarCookie.18.05.01.Stefani...
Hitzefrei.18.07.13.Texas.Pat...
ThirdMovies.18.11.17.Alexa.N...
ThirdMovies.18.11.19.Karlee....
TheLifeErotic.18.11.20.Aranx...
Hitzefrei.18.07.11.Sina.Velv...

3D
The.Art.of.Flight.3D.2011.Ge...
The.End.Of.The.World.3D.2010...
The.First.Avenger.Civil.War....
Die.Unglaublichen.2.2018.3D....
Skyscraper.3D.2018.MULTi.COM...
Ant-Man.And.The.Wasp.3D.2018...
Ant.Man.and.the.Wasp.3D.2018...
Die.Unglaublichen.2.3D.2018....
Die.Unglaublichen.2.2018.3D....
Die.Unglaublichen.2.2018.3D....
Sharknado.6.The.Last.One.3D....
Deep.Kleine.Helden.der.Tiefs...
Deep.3D.2017.MULTI.COMPLETE....
Detective.Dee.und.die.Legend...
Detective.Dee.und.die.Legend...

Old_Stuff
Akte.X.S03.German.DTS.DL.108...
Dunkirk.1958.COMPLETE.BLURAY...
Das.Wunder.von.Manhattan.199...
The.Amazing.Spiderman.2.Rise...
Rise.of.the.Predator.2014.Ge...
Detective.Dee.und.das.Geheim...
Detective.Dee.Und.Der.Fluch....
Ghost.Rider.Spirit.of.Vengea...
Species.IV.Das.Erwachen.2007...
Species.IV.Das.Erwachen.2007...
Hotel.Transsilvanien.2012.Ge...
The.Dead.2010.German.DL.1080...
The.Dead.2.India.2013.German...
Britney.Spears.Live.The.Femm...
Buffy.The.Vampire.Slayer.199...

Filme
Vikings.S05.GERMAN.720p.WebH...
Echoes.Stimmen.aus.der.Zwisc...
Curve.2015.German.DL.AC3.108...
Willkommen.zu.Hause.Roscoe.J...
Wrecked.-.Voll.abgestuerzt.S...
The.Gifted.S02.GERMAN.DL.108...
The.Gifted.S02.GERMAN.720p.H...
Bonjour.Tristesse.1958.Germa...
Mord.im.Orient.Express.1974....
The.Cheerleaders.1973.German...
Midnight.Heat.Eine.moerderis...
Overdrive.2017.German.DTS.DL...
Pin.Cushion.2017.German.DTS....
Die.nackten.Tatsachen.1967.G...
Bent.Korruption.kennt.keine....
Small.Town.Killers.2017.Germ...
Ghostbusters.II.1989.DTS-HD....
Die.Maerchenbraut.1979.Germa...
Mean.Dreams.2016.German.DTS....
Flying.Fortress.B17.Luftkrie...
Frenemy.2009.German.DL.1080p...
The.Predator.2018.German.AC3...
Baby.Driver.2017.German.DTS....
Vendetta.Alles.was.ihm.blieb...

 
 
Better.Watch.Out.2016.German.DL.AC3.1080p.BluRay.x265-FuN

Jahr: 2016
Genre: Horror, Thriller
Sprache: Deutsch AC3 | Englisch AC3
Laufzeit: 1h 29mn
Bitrate: 3 650 Kbps
Format: MKV
Größe: 2.27 GiB
Release:

Beschreibung:

Weihnachten steht vor der Tür und auch in einem kleinen, ruhigen Vorort stimmt man sich schon mal auf die Festzeit ein. Die beiden Jungs Luke (Levi Miller) und Garrett (Ed Oxenbould) haben jedoch anderes im Sinn: Die möchten am liebsten gruselige Horrorfilme mit ihrer Babysitterin Ashley (Olivia DeJonge) schauen, als sie für einen Abend allein gelassen werden. Und alles deutet darauf hin, dass der Abend tatsächlich so verläuft, wie sie es sich vorgestellt haben. Doch dann verschafft sich ein ungebetener Gast Zugang zum Haus und droht damit, für Chaos zu sorgen. Der Eindringling hat allerdings die Rechnung ohne Luke und Garrett gemacht – die zwei Knirpse drehen nämlich den Spieß kurzerhand um und neben ihn gefangen. Kurz darauf verwandelt sich das festlich dekorierte Heim in ein blutiges Schlachtfeld voll tückischer Fallen…




File size                                : 2.27 GiB
Duration                                 : 1h 29mn
Overall bit rate                         : 3 650 Kbps
Movie name                               : Better.Watch.Out.2016.GERMAN.DL.1080p.BluRay.AVC-UNiVERSUM
Encoded date                             : UTC 2018-11-16 14:44:06
Writing application                      : mkvmerge v20.0.0 ('I Am The Sun') 64-bit
Writing library                          : libebml v1.3.5 + libmatroska v1.4.8
Attachements                             : Cover.jpg
DURATION                                 : 01:26:25.128000000
NUMBER_OF_FRAMES                         : 1050
NUMBER_OF_BYTES                          : 2492144
_STATISTICS_WRITING_APP                  : mkvmerge v20.0.0 ('I Am The Sun') 64-bit
_STATISTICS_WRITING_DATE_UTC             : 2018-11-16 14:44:06
_STATISTICS_TAGS                         : BPS DURATION NUMBER_OF_FRAMES NUMBER_OF_BYTES

Video
ID                                       : 1
Format                                   : HEVC
Format/Info                              : High Efficiency Video Coding
Format profile                           : Main@L4.0
Codec ID                                 : V_MPEGH/ISO/HEVC
Duration                                 : 1h 29mn
Bit rate                                 : 2 809 Kbps
Width                                    : 1 920 pixels
Height                                   : 800 pixels
Display aspect ratio                     : 2.40:1
Frame rate mode                          : Constant
Frame rate                               : 23.976 fps
Color space                              : YUV
Chroma subsampling                       : 4:2:0
Bit depth                                : 8 bits
Bits/(Pixel*Frame)                       : 0.076
Stream size                              : 1.75 GiB (77%)
Title                                    : UNiVERSUM
Writing library                          : x265 2.6:[Windows][GCC 7.3.0][64 bit] 8bit+10bit+12bit
Encoding settings                        : cpuid=1173503 / frame-threads=3 / numa-pools=8 / wpp / no-pmode / no-pme / no-psnr / no-ssim / log-level=2 / input-csp=1 / input-res=1920x800 / interlace=0 / total-frames=0 / level-idc=0 / high-tier=1 / uhd-bd=0 / ref=3 / no-allow-non-conformance / no-repeat-headers / annexb / no-aud / no-hrd / info / hash=0 / no-temporal-layers / open-gop / min-keyint=24 / keyint=240 / bframes=4 / b-adapt=0 / b-pyramid / bframe-bias=0 / rc-lookahead=15 / lookahead-slices=5 / scenecut=40 / no-intra-refresh / ctu=64 / min-cu-size=8 / no-rect / no-amp / max-tu-size=32 / tu-inter-depth=1 / tu-intra-depth=1 / limit-tu=0 / rdoq-level=0 / dynamic-rd=0.00 / no-ssim-rd / signhide / no-tskip / nr-intra=0 / nr-inter=0 / no-constrained-intra / no-strong-intra-smoothing / max-merge=2 / limit-refs=3 / no-limit-modes / me=1 / subme=2 / merange=57 / temporal-mvp / weightp / no-weightb / no-analyze-src-pics / deblock=0:0 / no-sao / no-sao-non-deblock / rd=2 / no-early-skip / rskip / fast-intra / no-tskip-fast / no-cu-lossless / no-b-intra / no-splitrd-skip / rdpenalty=0 / psy-rd=2.00 / psy-rdoq=0.00 / no-rd-refine / analysis-reuse-mode=0 / no-lossless / cbqpoffs=0 / crqpoffs=0 / rc=crf / crf=18.0 / qcomp=0.60 / qpstep=4 / stats-write=0 / stats-read=0 / ipratio=1.40 / pbratio=1.30 / aq-mode=1 / aq-strength=1.00 / cutree / zone-count=0 / no-strict-cbr / qg-size=32 / no-rc-grain / qpmax=69 / qpmin=0 / no-const-vbv / sar=1 / overscan=0 / videoformat=5 / range=0 / colorprim=1 / transfer=1 / colormatrix=1 / chromaloc=0 / display-window=0 / max-cll=0,0 / min-luma=0 / max-luma=255 / log2-max-poc-lsb=8 / vui-timing-info / vui-hrd-info / slices=1 / no-opt-qp-pps / no-opt-ref-list-length-pps / no-multi-pass-opt-rps / scenecut-bias=0.05 / no-opt-cu-delta-qp / no-aq-motion / no-hdr / no-hdr-opt / no-dhdr10-opt / analysis-reuse-level=5 / scale-factor=0 / refine-intra=0 / refine-inter=0 / refine-mv=0 / no-limit-sao / ctu-info=0 / no-lowpass-dct / refine-mv-type=0 / copy-pic=1
Default                                  : Yes
Forced                                   : No
DURATION                                 : 01:29:08.385000000
NUMBER_OF_FRAMES                         : 128233
NUMBER_OF_BYTES                          : 1923490816
_STATISTICS_WRITING_APP                  : mkvmerge v20.0.0 ('I Am The Sun') 64-bit
_STATISTICS_WRITING_DATE_UTC             : 2018-11-16 14:44:06
_STATISTICS_TAGS                         : BPS DURATION NUMBER_OF_FRAMES NUMBER_OF_BYTES

Audio #1
ID                                       : 2
Format                                   : AC-3
Format/Info                              : Audio Coding 3
Mode extension                           : CM (complete main)
Format settings, Endianness              : Big
Codec ID                                 : A_AC3
Duration                                 : 1h 29mn
Bit rate mode                            : Constant
Bit rate                                 : 384 Kbps
Channel(s)                               : 6 channels
Channel positions                        : Front: L C R, Side: L R, LFE
Sampling rate                            : 48.0 KHz
Bit depth                                : 16 bits
Compression mode                         : Lossy
Stream size                              : 245 MiB (11%)
Title                                    : Surround
Language                                 : German
Default                                  : Yes
Forced                                   : No
DURATION                                 : 01:29:08.384000000
NUMBER_OF_FRAMES                         : 167137
NUMBER_OF_BYTES                          : 256722432
_STATISTICS_WRITING_APP                  : mkvmerge v20.0.0 ('I Am The Sun') 64-bit
_STATISTICS_WRITING_DATE_UTC             : 2018-11-16 14:44:06
_STATISTICS_TAGS                         : BPS DURATION NUMBER_OF_FRAMES NUMBER_OF_BYTES

Audio #2
ID                                       : 3
Format                                   : AC-3
Format/Info                              : Audio Coding 3
Mode extension                           : CM (complete main)
Format settings, Endianness              : Big
Codec ID                                 : A_AC3
Duration                                 : 1h 29mn
Bit rate mode                            : Constant
Bit rate                                 : 384 Kbps
Channel(s)                               : 6 channels
Channel positions                        : Front: L C R, Side: L R, LFE
Sampling rate                            : 48.0 KHz
Bit depth                                : 16 bits
Compression mode                         : Lossy
Stream size                              : 245 MiB (11%)
Title                                    : Surround
Language                                 : English
Default                                  : No
Forced                                   : No
DURATION                                 : 01:29:08.384000000
NUMBER_OF_FRAMES                         : 167137
NUMBER_OF_BYTES                          : 256722432
_STATISTICS_WRITING_APP                  : mkvmerge v20.0.0 ('I Am The Sun') 64-bit
_STATISTICS_WRITING_DATE_UTC             : 2018-11-16 14:44:06
_STATISTICS_TAGS                         : BPS DURATION NUMBER_OF_FRAMES NUMBER_OF_BYTES



Download:
Share Online Share OnlineShare OnlineShare Online
 

Kommentare