Filecrypt zeigt vereinzelt Files als "n/a". Die Downloads sind trotzdem komplett.

DNS SERVER AENDERNum der staatlichen Zensur zu umgehen. Sollten wir von eurem Provider geseprrt werden, nutzt den TOR BROWSER oder ändert euren DNS SERVER.

Filmwünsche können bei uns im Forum abgegeben werden

Wir Speichern Nicht




 
 
 
Top Releases
Burnt.Im.Rausch.der.Sterne.2...
Sicario.2.Soldado.2018.Germa...
Hotel.Artemis.German.DL.720p...
Hotel.Artemis.German.DL.1080...
Dead.in.a.Week.Oder.Geld.zur...
Dead.in.a.Week.Oder.Geld.zur...
Die.Welt.gehoert.dir.2018.Ge...
Die.Welt.gehoert.dir.2018.Ge...
Paradox.Kill.Zone.Bangkok.20...
Paradox.Kill.Zone.Bangkok.20...

Cinedubs
I.Still.See.You.Sie.lassen.d...
I.Still.See.You.Sie.lassen.d...
Braven.2018.German.AC3D.DL.1...
Braven.2018.German.AC3D.DL.7...
Smallfoot.Ein.eisigartiges.A...
Smallfoot.Ein.eisigartiges.A...
Halloween.German.DL.AC3.Dubb...
Halloween.German.DL.AC3.Dubb...
Freaky.Friday.German.DL.AC3....
Freaky.Friday.German.DL.AC3....

Neuerscheinungen 2017-18
The.Darkest.Minds.Die.Ueberl...
Battle.2018.German.720p.WEB....
Battle.2018.German.1080p.WEB...
Angelas.Weihnachten.2018.Ger...
Angelas.Weihnachten.2018.Ger...
The.Mermaid.Lake.of.the.Dead...
The.Mermaid.Lake.of.the.Dead...
Ouija.Seance.The.Final.Game....
Ouija.Seance.The.Final.Game....
Reprisal.Nimm.Dir.was.Dir.ge...

XXX
DorcelClub.18.11.26.Alyssia....
DDFBusty.18.11.25.Victoria.J...
ATKGirlfriends.18.11.25.Lucy...
ATKHairy.18.11.26.Nenetl.Avr...
Cucked.18.11.26.Skylar.Snow....
AdultAuditions.E264.Paige.My...
FakeDrivingSchool.18.11.26.G...
EuroTeenErotica.18.11.26.Mia...
Cosmid.18.11.26.Allie.Reed.F...
GirlsTryAnal.18.11.25.Penny....
CzechEscortGirls.18.11.26.Ka...
FirstAnalQuest.18.11.25.Eva....
FitnessRooms.18.11.26.Boni.J...
CzechEscortGirls.18.11.26.Re...
DadCrush.18.11.25.Jasmine.Ve...
EvilAngel.Top.Heavy.Sluts.XX...
GirlsOutWest.18.11.26.Montan...
FTVMilfs.18.11.26.Eve.A.Busy...
FakeTaxi.18.11.25.Luna.Toxxx...
FirstAnalDate.18.11.13.Marse...

3D
The.Art.of.Flight.3D.2011.Ge...
The.End.Of.The.World.3D.2010...
The.First.Avenger.Civil.War....
Die.Unglaublichen.2.2018.3D....
Skyscraper.3D.2018.MULTi.COM...
Ant-Man.And.The.Wasp.3D.2018...
Ant.Man.and.the.Wasp.3D.2018...
Die.Unglaublichen.2.3D.2018....
Die.Unglaublichen.2.2018.3D....
Die.Unglaublichen.2.2018.3D....
Sharknado.6.The.Last.One.3D....
Deep.Kleine.Helden.der.Tiefs...
Deep.3D.2017.MULTI.COMPLETE....
Detective.Dee.und.die.Legend...
Detective.Dee.und.die.Legend...

Old_Stuff
Akte.X.S03.German.DTS.DL.108...
Dunkirk.1958.COMPLETE.BLURAY...
Das.Wunder.von.Manhattan.199...
The.Amazing.Spiderman.2.Rise...
Rise.of.the.Predator.2014.Ge...
Detective.Dee.und.das.Geheim...
Detective.Dee.Und.Der.Fluch....
Ghost.Rider.Spirit.of.Vengea...
Species.IV.Das.Erwachen.2007...
Species.IV.Das.Erwachen.2007...
Hotel.Transsilvanien.2012.Ge...
The.Dead.2010.German.DL.1080...
The.Dead.2.India.2013.German...
Britney.Spears.Live.The.Femm...
Buffy.The.Vampire.Slayer.199...

Filme
Teen.Wolf.S06D01-3.MULTi.COM...
There.Will.Be.Blood.2007.Ger...
Overboard.-.Ein.Goldfisch.fa...
Schneefloeckchen.2017.German...
Scorpion.King.Das.Buch.der.S...
Radio.Days.1987.German.DL.10...
Radio.Rebel.Unueberhoerbar.2...
Radio.Silence.Der.Tod.hoert....
Rage.2.2010.German.DL.1080p....
Rage.2009.German.DL.1080p.Bl...
Hotel.Artemis.2018.German.DT...
Stanley.und.Iris.1990.German...
The.Walking.Dead.S08D1-4.UNC...
Once.Upon.a.Time.S07.German....
Once.Upon.a.Time.S07.German....
American.Horror.Story.S08.GE...
American.Horror.Story.S08.GE...
Brawl.in.Cell.Block.99.2017....
Papillon.2017.German.DTS.DL....
Papillon.2017.German.DTS.DL....
Quarantaene.2008.German.AC3....
Glueck.im.Hinterhaus.1980.Ge...
Meg.2018.German.DL.720p.BluR...
Meg.2018.German.DL.1080p.Blu...

 
 
Rage.2009.German.DL.1080p.BluRay.x264-DETAiLS

Jahr: 2009
Genre: Drama, Krimi
Sprache: Deutsch DTS | Englisch DTS
Laufzeit: 1h 38mn
Bitrate: 5 734 Kbps
Format: MKV
Größe: 3.94 GiB
Release:

Beschreibung:

Ein Schuljunge erhält Zugang zur strahlenden New Yorker Modewelt und hält seine Erlebnisse auf einer Digicam fest. Die entstandenen Filme kann man auf seiner Website streamen. Bald schon erhalten sie eine zusätzliche Bedeutung: Ein tragischer Unfall auf dem Laufsteg, der ein Model das Leben kostet, erweist sich schnell als möglicher Mord. Und die Filme des Jungen könnten Aufschluss über die Identität des Täters geben, während sich die Branche selbst zu zerfleischen beginnt und weitere Morde folgen.



Complete name                            : d-rage-1080p.mkv
Format                                   : Matroska
Format version                           : Version 2
File size                                : 3.94 GiB
Duration                                 : 1h 38mn
Overall bit rate                         : 5 734 Kbps
Movie name                               : Rage
Encoded date                             : UTC 2010-01-06 17:54:25
Writing application                      : mkvmerge v2.9.9 ('Tutu') built on Nov 26 2009 02:00:27
Writing library                          : libebml v0.7.7 + libmatroska v0.8.1

Video
ID                                       : 1
Format                                   : AVC
Format/Info                              : Advanced Video Codec
Format profile                           : High@L4.1
Format settings, CABAC                   : Yes
Format settings, ReFrames                : 4 frames
Codec ID                                 : V_MPEG4/ISO/AVC
Duration                                 : 1h 38mn
Bit rate                                 : 2 602 Kbps
Width                                    : 1 920 pixels
Height                                   : 1 080 pixels
Display aspect ratio                     : 16:9
Frame rate mode                          : Constant
Frame rate                               : 24.000 fps
Color space                              : YUV
Chroma subsampling                       : 4:2:0
Bit depth                                : 8 bits
Scan type                                : Progressive
Bits/(Pixel*Frame)                       : 0.052
Stream size                              : 1.79 GiB (45%)
Title                                    : Rage
Writing library                          : x264 core 80 r1369 ec8e586
Encoding settings                        : cabac=1 / ref=4 / deblock=1:0:0 / analyse=0x3:0x133 / me=umh / subme=7 / psy=1 / psy_rd=1.0:0.0 / mixed_ref=1 / me_range=16 / chroma_me=1 / trellis=1 / 8x8dct=1 / cqm=0 / deadzone=21,11 / fast_pskip=0 / chroma_qp_offset=-2 / threads=6 / sliced_threads=0 / nr=0 / decimate=1 / mbaff=0 / constrained_intra=0 / bframes=3 / b_pyramid=2 / b_adapt=1 / b_bias=0 / direct=3 / wpredb=1 / wpredp=2 / keyint=250 / keyint_min=25 / scenecut=40 / rc_lookahead=40 / rc=crf / mbtree=1 / crf=20.0 / qcomp=0.60 / qpmin=10 / qpmax=51 / qpstep=4 / ip_ratio=1.40 / aq=1:1.00
Default                                  : Yes
Forced                                   : No

Audio #1
ID                                       : 2
Format                                   : DTS
Format/Info                              : Digital Theater Systems
Mode                                     : 16
Format settings, Endianness              : Big
Codec ID                                 : A_DTS
Duration                                 : 1h 38mn
Bit rate mode                            : Constant
Bit rate                                 : 1 509 Kbps
Channel(s)                               : 6 channels
Channel positions                        : Front: L C R, Side: L R, LFE
Sampling rate                            : 48.0 KHz
Bit depth                                : 16 bits
Compression mode                         : Lossy
Stream size                              : 1.04 GiB (26%)
Title                                    : DTS
Language                                 : German
Default                                  : Yes
Forced                                   : No

Audio #2
ID                                       : 3
Format                                   : DTS
Format/Info                              : Digital Theater Systems
Mode                                     : 16
Format settings, Endianness              : Big
Codec ID                                 : A_DTS
Duration                                 : 1h 38mn
Bit rate mode                            : Constant
Bit rate                                 : 1 509 Kbps
Channel(s)                               : 6 channels
Channel positions                        : Front: L C R, Side: L R, LFE
Sampling rate                            : 48.0 KHz
Bit depth                                : 16 bits
Compression mode                         : Lossy
Stream size                              : 1.04 GiB (26%)
Title                                    : DTS
Language                                 : English
Default                                  : No
Forced                                   : No


Download:
Share Online Share OnlineShare OnlineShare Online
 

Kommentare