HD-AREA wünscht Euch eine besinnliche Weihnachtszeit ;)

DNS SERVER AENDERNum der staatlichen Zensur zu umgehen. Sollten wir von eurem Provider geseprrt werden, nutzt den TOR BROWSER oder ändert euren DNS SERVER.

Filmwünsche können bei uns im Forum abgegeben werden

Wir Speichern Nicht




 
 
 
Top Releases
Catch.Me.2018.German.DL.1080...
Catch.Me.2018.German.DL.1080...
Catch.Me.Tag.2018.MULTI.COMP...
Earthquake.Die.Welt.Am.Abgru...
Earthquake.Die.Welt.Am.Abgru...
Earthquake.Die.Welt.Am.Abgru...
Earthquake.Die.Welt.Am.Abgru...
Paradox.Kill.Zone.Bangkok.20...
I.Tonya.2017.German.AC3.1080...
Deine.Juliet.2018.German.DL....

Cinedubs
Venom.German.DL.AC3.Dubbed.1...
Venom.2018.German.AC3D.5.1.D...
Venom.2018.German.AC3D.5.1.D...
Das.krumme.Haus.2017.GERMAN....
Das.krumme.Haus.2017.GERMAN....
I.Still.See.You.Sie.lassen.d...
I.Still.See.You.Sie.lassen.d...
Braven.2018.German.AC3D.DL.1...
Braven.2018.German.AC3D.DL.7...
Smallfoot.Ein.eisigartiges.A...

Neuerscheinungen 2017-18
Braven.2018.German.DTSD.DL.1...
Annie.1982.COMPLETE.BLURAY.i...
Reprisal.Nimm.Dir.was.Dir.ge...
Catch.Me.2018.German.720p.Bl...
Catch.Me.2018.German.DL.1080...
Ghost.Town.GERMAN.1988.DL.10...
Donner.ueber.dem.Indischen.O...
Bullets.over.Broadway.1994.M...
Ghost.Town.1988.DUAL.COMPLET...
Ein.Lied.in.Gottes.Ohr.2017....

XXX
Black.Street.Hookers.105.XXX...
Black.Street.Hookers.105.XXX...
Cosmid.18.12.03.Abigail.Andr...
ConorCoxxx.18.06.08.Scarlett...
CrowdBondage.18.12.03.Susy.G...
DesperateAmateurs.18.12.02.B...
ClaudiaMarie.18.11.25.Mr.Mar...
DateSlam.18.12.03.Kelly.Horn...
DickOnTrip.18.12.03.Black.Wh...
ConorCoxxx.18.07.13.Nadia.Wh...
CzechCasting.18.12.01.Nikol....
CreampieInAsia.18.11.30.Pon....
ConorCoxxx.18.07.20.Marica.H...
Cosmid.18.12.01.Bella.Bruni....
ConorCoxxx.18.11.23.Ashton.B...
ConorCoxxx.18.06.29.Erica.La...
ATKGirlfriends.18.12.01.Zoe....
ClubSeventeen.18.12.01.Aurel...
ConorCoxxx.18.07.06.Noelle.E...
CherryPimps.18.12.03.Ana.Fox...

3D
The.Art.of.Flight.3D.2011.Ge...
The.End.Of.The.World.3D.2010...
The.First.Avenger.Civil.War....
Die.Unglaublichen.2.2018.3D....
Skyscraper.3D.2018.MULTi.COM...
Ant-Man.And.The.Wasp.3D.2018...
Ant.Man.and.the.Wasp.3D.2018...
Die.Unglaublichen.2.3D.2018....
Die.Unglaublichen.2.2018.3D....
Die.Unglaublichen.2.2018.3D....
Sharknado.6.The.Last.One.3D....
Deep.Kleine.Helden.der.Tiefs...
Deep.3D.2017.MULTI.COMPLETE....
Detective.Dee.und.die.Legend...
Detective.Dee.und.die.Legend...

Old_Stuff
Akte.X.S04.German.DTS.DL.108...
Akte.X.S03.German.DTS.DL.108...
Dunkirk.1958.COMPLETE.BLURAY...
Das.Wunder.von.Manhattan.199...
The.Amazing.Spiderman.2.Rise...
Rise.of.the.Predator.2014.Ge...
Detective.Dee.und.das.Geheim...
Detective.Dee.Und.Der.Fluch....
Ghost.Rider.Spirit.of.Vengea...
Species.IV.Das.Erwachen.2007...
Species.IV.Das.Erwachen.2007...
Hotel.Transsilvanien.2012.Ge...
The.Dead.2010.German.DL.1080...
The.Dead.2.India.2013.German...
Britney.Spears.Live.The.Femm...

Filme
Jungle.2017.German.DL.1080p....
Die.haarstrawubende.Reise.in...
The.Walking.Dead.S08.COMPLET...
Justice.League.Dark.2017.Ger...
Air.Force.One.1997.UHD2BD.DL...
Rare.Exports.2010.German.AC3...
Logan.Lucky.2017.German.DL.1...
How.to.Be.Single.2016.German...
Housesitter.Luegen.haben.sch...
Die.Stunde.des.Headhunter.19...
Swedish.Dicks.S02.GERMAN.720...
Wildlife.Vol.1.Striker.Anato...
Criminal.Minds.S13.COMPLETE....
Snatch.S02.German.DL.DUBBED....
Snatch.S02.German.DL.DUBBED....
Killjoys.S04.German.DD51.Dub...
Killjoys.S04.German.DD51.Dub...
Robin.Hood.Ein.Leben.fuer.Ri...
Ghost.Town.GERMAN.1988.DL.72...
Donner.ueber.dem.Indischen.O...
Dogs.Of.Berlin.S01.GERMAN.DL...
Dogs.Of.Berlin.S01.German.72...
Get.Shorty.S02.German.DD51.S...
Get.Shorty.S02.German.DD51.S...

 
 
Catch.Me.2018.German.DL.1080p.BluRay.x265-UNFIrED

Jahr: 2018
Genre: Komödie
Sprache: Deutsch AC3 | Englisch DTS
Laufzeit: 1h 40mn
Bitrate: 4 326 Kbps
Format: MKV
Größe: 3.04 GiB
Release:

Beschreibung:
Eine Gruppe von Freunden spielt seit rund 30 Jahren das Kinderspiel „Fangen“. Was einst ganz normal auf dem Spielplatz anfing, hat sich zu einer bizarren Jagd weiterentwickelt. Obwohl sie mittlerweile sehr weit voneinander entfernt wohnen, scheuen die Kumpels dabei keine Kosten und Mühen. Jede noch so verquere Idee ist erlaubt bei dem Spiel, das sie jedes Jahr jeweils im Mai veranstalten. Wer gerade der Fänger ist, reist auch mal quer durchs Land, damit er bei einem anderen einbrechen oder hinter einem Busch vorzuspringen kann, um ihn mit einer Berührung zum neuen Fänger zu machen. In diesem Jahr steht die Hochzeit des einzigen bislang unbesiegten Mitspielers Jerry (Jeremy Renner) an. Seine Kumpels Callahan (Jon Hamm), Chilli (Jake Johnson), Hoagie (Ed Helms) und Sable (Hannibal Buress) hoffen, ihn endlich in die Finger zu bekommen. Doch der Champion ist natürlich vorbereitet...
AUDiO-SOURCE............:     :.AC3 5.1 640 kbps (CODY)


Complete name                            : unfired-catchme-x265.mkv
Format                                   : Matroska
Format version                           : Version 4 / Version 2
File size                                : 3.04 GiB
Duration                                 : 1h 40mn
Overall bit rate                         : 4 326 Kbps
Encoded date                             : UTC 2018-12-07 06:21:51
Writing application                      : mkvmerge v28.2.0 ('The Awakening') 64-bit
Writing library                          : libebml v1.3.6 + libmatroska v1.4.9
DURATION                                 : 01:40:33.903000000
NUMBER_OF_FRAMES                         : 144669
NUMBER_OF_BYTES                          : 1611942026
_STATISTICS_WRITING_APP                  : mkvmerge v28.2.0 ('The Awakening') 64-bit
_STATISTICS_WRITING_DATE_UTC             : 2018-12-07 06:21:51
_STATISTICS_TAGS                         : BPS DURATION NUMBER_OF_FRAMES NUMBER_OF_BYTES

Video
ID                                       : 1
Format                                   : HEVC
Format/Info                              : High Efficiency Video Coding
Format profile                           : Main@L4.0
Codec ID                                 : V_MPEGH/ISO/HEVC
Duration                                 : 1h 40mn
Bit rate                                 : 2 091 Kbps
Width                                    : 1 920 pixels
Height                                   : 804 pixels
Display aspect ratio                     : 2.40:1
Frame rate mode                          : Constant
Frame rate                               : 23.976 fps
Color space                              : YUV
Chroma subsampling                       : 4:2:0
Bit depth                                : 8 bits
Bits/(Pixel*Frame)                       : 0.056
Stream size                              : 1.47 GiB (48%)
Writing library                          : x265 2.8+1-478bfe2b7673:[Windows][GCC 7.3.0][64 bit] 8bit+10bit+12bit
Encoding settings                        : cpuid=1111039 / frame-threads=16 / numa-pools=16 / wpp / no-pmode / no-pme / no-psnr / no-ssim / log-level=2 / input-csp=1 / input-res=1920x804 / interlace=0 / total-frames=144669 / level-idc=0 / high-tier=1 / uhd-bd=0 / ref=4 / no-allow-non-conformance / no-repeat-headers / annexb / no-aud / no-hrd / info / hash=0 / no-temporal-layers / open-gop / min-keyint=23 / keyint=250 / gop-lookahead=0 / bframes=4 / b-adapt=2 / b-pyramid / bframe-bias=0 / rc-lookahead=25 / lookahead-slices=4 / scenecut=40 / radl=0 / no-intra-refresh / ctu=64 / min-cu-size=8 / rect / no-amp / max-tu-size=32 / tu-inter-depth=1 / tu-intra-depth=1 / limit-tu=0 / rdoq-level=2 / dynamic-rd=0.00 / no-ssim-rd / signhide / no-tskip / nr-intra=0 / nr-inter=0 / no-constrained-intra / strong-intra-smoothing / max-merge=3 / limit-refs=3 / limit-modes / me=3 / subme=3 / merange=57 / temporal-mvp / weightp / no-weightb / no-analyze-src-pics / deblock=0:0 / sao / no-sao-non-deblock / rd=4 / no-early-skip / rskip / no-fast-intra / no-tskip-fast / no-cu-lossless / no-b-intra / no-splitrd-skip / rdpenalty=0 / psy-rd=2.00 / psy-rdoq=1.00 / no-rd-refine / no-lossless / cbqpoffs=0 / crqpoffs=0 / rc=crf / crf=19.9 / qcomp=0.60 / qpstep=4 / stats-write=0 / stats-read=0 / ipratio=1.40 / pbratio=1.30 / aq-mode=1 / aq-strength=1.00 / cutree / zone-count=0 / no-strict-cbr / qg-size=32 / no-rc-grain / qpmax=69 / qpmin=0 / no-const-vbv / sar=1 / overscan=0 / videoformat=5 / range=0 / colorprim=2 / transfer=2 / colormatrix=2 / chromaloc=0 / display-window=0 / max-cll=0,0 / min-luma=0 / max-luma=255 / log2-max-poc-lsb=8 / vui-timing-info / vui-hrd-info / slices=1 / no-opt-qp-pps / no-opt-ref-list-length-pps / no-multi-pass-opt-rps / scenecut-bias=0.05 / no-opt-cu-delta-qp / no-aq-motion / no-hdr / no-hdr-opt / no-dhdr10-opt / no-idr-recovery-sei / analysis-reuse-level=5 / scale-factor=0 / refine-intra=0 / refine-inter=0 / refine-mv=0 / no-limit-sao / ctu-info=0 / no-lowpass-dct / refine-mv-type=0 / copy-pic=1 / max-ausize-factor=1.0 / no-dynamic-refine / no-single-sei
Default                                  : Yes
Forced                                   : No

Audio #1
ID                                       : 2
Format                                   : AC-3
Format/Info                              : Audio Coding 3
Mode extension                           : CM (complete main)
Format settings, Endianness              : Big
Codec ID                                 : A_AC3
Duration                                 : 1h 40mn
Bit rate mode                            : Constant
Bit rate                                 : 640 Kbps
Channel(s)                               : 6 channels
Channel positions                        : Front: L C R, Side: L R, LFE
Sampling rate                            : 48.0 KHz
Bit depth                                : 16 bits
Compression mode                         : Lossy
Stream size                              : 460 MiB (15%)
Language                                 : German
Default                                  : Yes
Forced                                   : No

Audio #2
ID                                       : 3
Format                                   : DTS
Format/Info                              : Digital Theater Systems
Mode                                     : 16
Format settings, Endianness              : Big
Codec ID                                 : A_DTS
Duration                                 : 1h 40mn
Bit rate mode                            : Constant
Bit rate                                 : 1 509 Kbps
Channel(s)                               : 6 channels
Channel positions                        : Front: L C R, Side: L R, LFE
Sampling rate                            : 48.0 KHz
Bit depth                                : 24 bits
Compression mode                         : Lossy
Stream size                              : 1.06 GiB (35%)
Language                                 : English
Default                                  : No
Forced                                   : No

Text #1
ID                                       : 4
Format                                   : UTF-8
Codec ID                                 : S_TEXT/UTF8
Codec ID/Info                            : UTF-8 Plain Text
Title                                    : forced
Language                                 : German
Default                                  : Yes
Forced                                   : Yes

Text #2
ID                                       : 5
Format                                   : PGS
Muxing mode                              : zlib
Codec ID                                 : S_HDMV/PGS
Codec ID/Info                            : The same subtitle format used on BDs/HD-DVDs
Title                                    : complete
Language                                 : German
Default                                  : No
Forced                                   : No

Text #3
ID                                       : 6
Format                                   : PGS
Muxing mode                              : zlib
Codec ID                                 : S_HDMV/PGS
Codec ID/Info                            : The same subtitle format used on BDs/HD-DVDs
Title                                    : complete
Language                                 : English
Default                                  : No
Forced                                   : No


Download:
Share Online Share OnlineShare OnlineShare Online
 

Kommentare