HD-AREA wünscht Euch eine besinnliche Weihnachtszeit ;)

DNS SERVER AENDERNum der staatlichen Zensur zu umgehen. Sollten wir von eurem Provider geseprrt werden, nutzt den TOR BROWSER oder ändert euren DNS SERVER.

Filmwünsche können bei uns im Forum abgegeben werden

Wir Speichern Nicht




 
 
 
Top Releases
The.Bouncer.2018.German.720p...
The.Bouncer.2018.German.1080...
Cesar.Chavez.2014.German.AC3...
Schneefloeckchen.2017.German...
Catch.Me.2018.German.DL.1080...
Catch.Me.2018.German.DL.1080...
Catch.Me.Tag.2018.MULTI.COMP...
Earthquake.Die.Welt.Am.Abgru...
Earthquake.Die.Welt.Am.Abgru...
Earthquake.Die.Welt.Am.Abgru...

Cinedubs
Venom.German.DL.AC3.Dubbed.1...
Venom.2018.German.AC3D.5.1.D...
Venom.2018.German.AC3D.5.1.D...
Das.krumme.Haus.2017.GERMAN....
Das.krumme.Haus.2017.GERMAN....
I.Still.See.You.Sie.lassen.d...
I.Still.See.You.Sie.lassen.d...
Braven.2018.German.AC3D.DL.1...
Braven.2018.German.AC3D.DL.7...
Smallfoot.Ein.eisigartiges.A...

Neuerscheinungen 2017-18
The.Night.Train.2016.GERMAN....
Skyscraper.2018.German.AC3.1...
Meine.teuflisch.gute.Freundi...
Occupation.2018.GERMAN.DL.AC...
Occupation.2018.GERMAN.DL.AC...
Braven.2018.German.DTSD.DL.7...
Braven.2018.German.DTSD.DL.1...
Braven.2018.German.DTSD.DL.1...
Annie.1982.COMPLETE.BLURAY.i...
Reprisal.Nimm.Dir.was.Dir.ge...

XXX
Club.One.9.XXX.1080p.WEBRip....
Club.One.9.XXX.720p.WEBRip.M...
Black.Street.Hookers.105.XXX...
Black.Street.Hookers.105.XXX...
Cosmid.18.12.03.Abigail.Andr...
ConorCoxxx.18.06.08.Scarlett...
CrowdBondage.18.12.03.Susy.G...
DesperateAmateurs.18.12.02.B...
ClaudiaMarie.18.11.25.Mr.Mar...
DateSlam.18.12.03.Kelly.Horn...
DickOnTrip.18.12.03.Black.Wh...
ConorCoxxx.18.07.13.Nadia.Wh...
CzechCasting.18.12.01.Nikol....
CreampieInAsia.18.11.30.Pon....
ConorCoxxx.18.07.20.Marica.H...
Cosmid.18.12.01.Bella.Bruni....
ConorCoxxx.18.11.23.Ashton.B...
ConorCoxxx.18.06.29.Erica.La...
ATKGirlfriends.18.12.01.Zoe....
ClubSeventeen.18.12.01.Aurel...

3D
The.Art.of.Flight.3D.2011.Ge...
The.End.Of.The.World.3D.2010...
The.First.Avenger.Civil.War....
Die.Unglaublichen.2.2018.3D....
Skyscraper.3D.2018.MULTi.COM...
Ant-Man.And.The.Wasp.3D.2018...
Ant.Man.and.the.Wasp.3D.2018...
Die.Unglaublichen.2.3D.2018....
Die.Unglaublichen.2.2018.3D....
Die.Unglaublichen.2.2018.3D....
Sharknado.6.The.Last.One.3D....
Deep.Kleine.Helden.der.Tiefs...
Deep.3D.2017.MULTI.COMPLETE....
Detective.Dee.und.die.Legend...
Detective.Dee.und.die.Legend...

Old_Stuff
Akte.X.S04.German.DTS.DL.108...
Akte.X.S03.German.DTS.DL.108...
Dunkirk.1958.COMPLETE.BLURAY...
Das.Wunder.von.Manhattan.199...
The.Amazing.Spiderman.2.Rise...
Rise.of.the.Predator.2014.Ge...
Detective.Dee.und.das.Geheim...
Detective.Dee.Und.Der.Fluch....
Ghost.Rider.Spirit.of.Vengea...
Species.IV.Das.Erwachen.2007...
Species.IV.Das.Erwachen.2007...
Hotel.Transsilvanien.2012.Ge...
The.Dead.2010.German.DL.1080...
The.Dead.2.India.2013.German...
Britney.Spears.Live.The.Femm...

Filme
Die.Unbestechlichen.aka.The....
Planet.51.2009.German.DL.108...
Arrow.S06.COMPLETE.German.DL...
Die.Bestimmung.Allegiant.201...
Ice.S02.GERMAN.DL.1080p.HDTV...
Ice.S02.GERMAN.DL.720p.HDTV....
Assassins.Creed.2016.German....
Sully.2016.German.DTS.DL.108...
Sing.2016.German.DL.1080p.Bl...
Mother.2017.German.DL.1080p....
The.Safe.2017.German.DTS.DL....
Wildes.Russland.2008.German....
Dogs.Of.Berlin.S01.COMPLETE....
Arielle.die.Meerjungfrau.198...
Road.to.Hell.UNCUT.2016.Germ...
Die.Hitler.Chronik.2018.COMP...
Best.Laid.Plans.1999.German....
Chaotische.Weihnachten.1988....
Jungle.2017.German.DL.1080p....
Die.haarstrawubende.Reise.in...
The.Walking.Dead.S08.COMPLET...
Justice.League.Dark.2017.Ger...
Air.Force.One.1997.UHD2BD.DL...
Rare.Exports.2010.German.AC3...

 
 
The.Bouncer.2018.German.720p.BluRay.x264-CONTRiBUTiON

Jahr: 2018
Genre: Action
Sprache: Deutsch DTS
Laufzeit: 1h 34mn
Bitrate: 2 617 Kbps
Format: MKV
Größe: 1.73 GiB
Release:

Beschreibung:

Der Ex-Bodyguard Lukas (Jean-Claude Van Damme) wird in ein gefährliches Doppelleben gedrängt. Dabei fing alles so gut an: Um sich und seine Tochter ernähren zu können, arbeitet Lukas als Türsteher in einem Nachtclub. Doch an einem Freitagabend wird sein ganzes Leben auf den Kopf gestellt, dort macht ein betrunkener Gast Probleme. Auch als der Türsteher versucht, die brenzlige Situation zu beenden, wird es nicht besser und der Gast verliert weiter die Kontrolle. Die beiden geraten weiter aneinander und der Disco-Besucher erleidet bei einer körperlichen Auseinandersetzung eine lebensgefährliche Kopfverletzung. Von nun an sieht sich Lukas dazu gezwungen, in einem Strip-Club zu arbeiten, um nicht von der Polizei entdeckt zu werden. Doch die Ermittler von Interpol sind schnell und entdecken ihn schließlich. Doch anstatt ihn hinter Schloss und Riegel zu bringen, machen sie ihm ein Angebot, das er nicht ausschlagen kann: Lukas soll als Informant arbeiten, da sein Boss im Strip-Club unter Verdacht steht, Falschgeld zu produzieren. Im Gegenzug könnte er wieder zu seiner Tochter und die Vorwürfe gegen Lukas wären vom Tisch.



Complete name                            : the.bouncer.2018.german.720p.bluray.x264-contribution.mkv
Format                                   : Matroska
Format version                           : Version 2
File size                                : 1.73 GiB
Duration                                 : 1h 34mn
Overall bit rate                         : 2 617 Kbps
Writing application                      : mkvmerge v6.6.0 ('The Edge Of The In Between') built on Dec 1 2013 17:55:00
Writing library                          : libebml v1.3.0 + libmatroska v1.4.1

Video
ID                                       : 1
Format                                   : AVC
Format/Info                              : Advanced Video Codec
Format profile                           : High@L4.1
Format settings, CABAC                   : Yes
Format settings, ReFrames                : 5 frames
Codec ID                                 : V_MPEG4/ISO/AVC
Duration                                 : 1h 34mn
Bit rate                                 : 1 056 Kbps
Width                                    : 1 280 pixels
Height                                   : 536 pixels
Display aspect ratio                     : 2.40:1
Frame rate mode                          : Constant
Frame rate                               : 24.000 fps
Color space                              : YUV
Chroma subsampling                       : 4:2:0
Bit depth                                : 8 bits
Scan type                                : Progressive
Bits/(Pixel*Frame)                       : 0.064
Stream size                              : 715 MiB (40%)
Writing library                          : x264 core 157 r2935 545de2f
Encoding settings                        : cabac=1 / ref=5 / deblock=1:-3:-3 / analyse=0x3:0x133 / me=umh / subme=7 / psy=1 / psy_rd=1.00:0.15 / mixed_ref=1 / me_range=16 / chroma_me=1 / trellis=1 / 8x8dct=1 / cqm=0 / deadzone=21,11 / fast_pskip=0 / chroma_qp_offset=-3 / threads=12 / lookahead_threads=2 / sliced_threads=0 / nr=0 / decimate=1 / interlaced=0 / bluray_compat=0 / constrained_intra=0 / bframes=3 / b_pyramid=2 / b_adapt=2 / b_bias=0 / direct=3 / weightb=1 / open_gop=0 / weightp=2 / keyint=240 / keyint_min=24 / scenecut=40 / intra_refresh=0 / rc_lookahead=50 / rc=crf / mbtree=1 / crf=20.0 / qcomp=0.60 / qpmin=0 / qpmax=69 / qpstep=4 / ip_ratio=1.40 / aq=1:1.00
Language                                 : English
Default                                  : Yes
Forced                                   : No

Audio
ID                                       : 2
Format                                   : DTS
Format/Info                              : Digital Theater Systems
Mode                                     : 16
Format settings, Endianness              : Big
Codec ID                                 : A_DTS
Duration                                 : 1h 34mn
Bit rate mode                            : Constant
Bit rate                                 : 1 509 Kbps
Channel(s)                               : 6 channels
Channel positions                        : Front: L C R, Side: L R, LFE
Sampling rate                            : 48.0 KHz
Bit depth                                : 24 bits
Compression mode                         : Lossy
Stream size                              : 1 021 MiB (58%)
Language                                 : German
Default                                  : Yes
Forced                                   : No


Download:
Share Online Share OnlineShare OnlineShare Online
 

Kommentare